<?xml version="1.0" standalone="no"?>
<!DOCTYPE svg PUBLIC "-//W3C//DTD SVG 1.1//EN" "http://www.w3.org/Graphics/SVG/1.1/DTD/svg11.dtd" >
<svg xmlns="http://www.w3.org/2000/svg">
<metadata>Generated by IcoMoon</metadata>
<defs>
<font id="icomoon" horiz-adv-x="1024">
<font-face units-per-em="1024" ascent="960" descent="-64" />
<missing-glyph horiz-adv-x="1024" />
<glyph unicode="&#x20;" horiz-adv-x="512" d="" />
<glyph unicode="&#xe900;" glyph-name="arrow-right" d="M882.323 476.963c15.995-15.995 15.995-41.931 0-57.926l-256-256c-15.995-15.995-41.931-15.995-57.926 0s-15.995 41.931 0 57.926l186.077 186.077h-583.782c-22.622 0-40.96 18.338-40.96 40.96s18.338 40.96 40.96 40.96h583.782l-186.077 186.077c-15.995 15.996-15.995 41.93 0 57.926s41.931 15.996 57.926 0l256-256z" />
<glyph unicode="&#xe901;" glyph-name="arrow-down" d="M135.986 615.38c19.037 20.833 51.83 22.709 73.246 4.191l302.768-261.798 302.768 261.798c21.418 18.518 54.211 16.642 73.245-4.191 19.038-20.833 17.109-52.734-4.309-71.251l-371.704-321.409-371.706 321.409c-21.416 18.517-23.345 50.418-4.309 71.251z" />
<glyph unicode="&#xe902;" glyph-name="check" d="M819.2 832l-476.16-523.637-138.24 104.706h-76.8l215.040-349.069 552.96 768h-76.8z" />
<glyph unicode="&#xe903;" glyph-name="clear" d="M512 17.92c114.065 0 223.457 45.31 304.112 125.968 80.658 80.654 125.968 190.046 125.968 304.112 0 114.064-45.31 223.457-125.968 304.112-80.654 80.656-190.046 125.968-304.112 125.968-114.064 0-223.457-45.312-304.112-125.968s-125.968-190.048-125.968-304.112c0-114.065 45.312-223.457 125.968-304.112 80.656-80.658 190.048-125.968 304.112-125.968zM308.787 651.213c7.56 7.551 17.808 11.792 28.493 11.792s20.933-4.241 28.493-11.792l146.227-146.229 146.227 146.229c3.69 3.961 8.143 7.139 13.087 9.343 4.948 2.204 10.285 3.389 15.7 3.484s10.793-0.9 15.811-2.928c5.022-2.028 9.585-5.046 13.41-8.875 3.83-3.829 6.849-8.389 8.876-13.41s3.023-10.398 2.929-15.812c-0.094-5.414-1.282-10.753-3.486-15.699s-5.378-9.397-9.343-13.088l-146.223-146.227 146.223-146.227c3.965-3.69 7.139-8.143 9.343-13.087 2.204-4.948 3.391-10.285 3.486-15.7s-0.901-10.793-2.929-15.811c-2.028-5.022-5.046-9.585-8.876-13.41-3.826-3.83-8.389-6.849-13.41-8.876-5.018-2.028-10.396-3.023-15.811-2.929s-10.752 1.282-15.7 3.486c-4.944 2.204-9.396 5.378-13.087 9.343l-146.227 146.223-146.227-146.223c-7.643-7.123-17.753-11.002-28.199-10.818s-20.412 4.415-27.799 11.805c-7.387 7.385-11.619 17.351-11.803 27.8-0.184 10.445 3.693 20.554 10.815 28.197l146.229 146.227-146.229 146.227c-7.551 7.56-11.792 17.808-11.792 28.493s4.241 20.933 11.792 28.493z" />
<glyph unicode="&#xe904;" glyph-name="close" d="M216.797 743.203c15.996 15.996 41.93 15.996 57.926 0l532.48-532.48c15.995-15.995 15.995-41.931 0-57.926s-41.931-15.995-57.926 0l-532.48 532.48c-15.996 15.996-15.996 41.93 0 57.926zM216.797 152.797c-15.996 15.995-15.996 41.931 0 57.926l532.48 532.48c15.995 15.996 41.931 15.996 57.926 0s15.995-41.93 0-57.926l-532.48-532.48c-15.996-15.995-41.93-15.995-57.926 0z" />
<glyph unicode="&#xe905;" glyph-name="close-round" d="M512 878.080c-237.525 0-430.080-192.555-430.080-430.080 0-237.539 192.555-430.080 430.080-430.080 237.539 0 430.080 192.541 430.080 430.080 0 237.525-192.541 430.080-430.080 430.080zM512 70.832c-207.5 0-376.32 169.669-376.32 377.168 0 207.502 168.82 376.322 376.32 376.322s376.32-168.821 376.32-376.322c0-207.499-168.821-377.168-376.32-377.168zM664.048 600.047c-10.498 10.496-27.513 10.496-38.011 0l-114.037-114.040-114.038 114.040c-10.497 10.496-27.512 10.496-38.022 0-10.496-10.497-10.496-27.512 0-38.008l114.037-114.038-114.037-114.037c-10.496-10.486-10.496-27.529 0-38.011 10.497-10.498 27.512-10.498 38.022 0l114.038 114.037 114.037-114.037c10.498-10.498 27.513-10.498 38.011 0 10.494 10.482 10.494 27.525 0 38.011l-114.041 114.037 114.041 114.038c10.51 10.51 10.51 27.525 0 38.008z" />
<glyph unicode="&#xe906;" glyph-name="delete" d="M450.56 650.302h122.88c0 15.898-6.472 31.144-17.994 42.385s-27.152 17.557-43.446 17.557c-16.294 0-31.924-6.315-43.446-17.557s-17.994-26.487-17.994-42.385zM404.48 650.302c0 13.776 2.781 27.416 8.184 40.143s13.324 24.291 23.306 34.031c9.986 9.741 21.84 17.467 34.886 22.739 13.042 5.272 27.025 7.985 41.144 7.985s28.103-2.713 41.144-7.985c13.046-5.272 24.9-12.998 34.886-22.739 9.982-9.741 17.904-21.305 23.306-34.031s8.184-26.367 8.184-40.143h176.64c6.111 0 11.973-2.368 16.29-6.584 4.321-4.216 6.75-9.933 6.75-15.895s-2.429-11.679-6.75-15.894c-4.317-4.216-10.179-6.584-16.29-6.584h-40.55l-35.942-362.974c-2.757-27.816-16.036-53.629-37.241-72.405-21.209-18.78-48.828-29.18-77.468-29.168h-185.917c-28.635-0.004-56.245 10.4-77.447 29.176-21.201 18.78-34.474 44.589-37.231 72.397l-35.973 362.974h-40.55c-6.11 0-11.971 2.368-16.292 6.584s-6.748 9.933-6.748 15.894c0 5.962 2.427 11.679 6.748 15.895s10.181 6.584 16.292 6.584h176.64zM465.92 507.941c0 5.964-2.429 11.678-6.75 15.897-4.317 4.215-10.179 6.582-16.29 6.582s-11.973-2.367-16.29-6.582c-4.321-4.219-6.75-9.933-6.75-15.897v-224.78c0-5.96 2.429-11.678 6.75-15.892 4.317-4.219 10.179-6.586 16.29-6.586s11.973 2.367 16.29 6.586c4.321 4.215 6.75 9.933 6.75 15.892v224.78zM581.12 530.42c6.111 0 11.973-2.367 16.29-6.582 4.321-4.219 6.75-9.933 6.75-15.897v-224.78c0-5.96-2.429-11.678-6.75-15.892-4.317-4.219-10.179-6.586-16.29-6.586s-11.973 2.367-16.29 6.586c-4.321 4.215-6.75 9.933-6.75 15.892v224.78c0 5.964 2.429 11.678 6.75 15.897 4.317 4.215 10.179 6.582 16.29 6.582zM350.228 246.686c1.657-16.683 9.623-32.166 22.345-43.43s29.288-17.502 46.468-17.498h185.917c17.179-0.004 33.747 6.234 46.469 17.498s20.685 26.747 22.344 43.43l35.574 358.661h-394.691l35.574-358.661z" />
<glyph unicode="&#xe907;" glyph-name="download" d="M512 837.12c7.201 0 14.107-2.86 19.198-7.952s7.95-11.996 7.95-19.196v-397.194l60.809 70.984c2.322 2.712 5.153 4.936 8.331 6.554 3.183 1.614 6.648 2.589 10.203 2.863s7.131-0.152 10.523-1.257c3.391-1.106 6.533-2.871 9.241-5.19 2.712-2.322 4.936-5.153 6.554-8.331 1.614-3.178 2.589-6.648 2.863-10.203s-0.152-7.131-1.257-10.523c-1.106-3.391-2.871-6.529-5.19-9.241l-108.593-126.689c-2.548-2.982-5.71-5.374-9.273-7.016-3.564-1.638-7.438-2.486-11.358-2.486s-7.795 0.848-11.358 2.486c-3.564 1.642-6.726 4.035-9.273 7.016l-108.592 126.689c-2.32 2.712-4.083 5.849-5.189 9.241s-1.534 6.967-1.258 10.523c0.276 3.555 1.249 7.025 2.864 10.203s3.842 6.009 6.551 8.331c2.71 2.318 5.849 4.084 9.24 5.19s6.967 1.532 10.523 1.257c3.556-0.274 7.021-1.249 10.204-2.863 3.178-1.618 6.009-3.842 8.331-6.554l60.809-70.947v397.157c0 7.2 2.859 14.105 7.95 19.196s11.997 7.952 19.198 7.952zM330.869 583.667c7.2 0.038 14.121-2.785 19.239-7.849s8.015-11.954 8.054-19.154c0.038-7.202-2.785-14.12-7.849-19.24-5.064-5.116-11.954-8.016-19.154-8.053-39.564-0.217-67.616-1.229-88.936-5.14-20.488-3.801-32.396-9.847-41.193-18.641-10.027-10.027-16.542-24.109-20.126-50.676-3.656-27.329-3.728-63.562-3.728-115.507v-36.196c0-51.978 0.072-88.211 3.728-115.54 3.584-26.571 10.136-40.616 20.126-50.676 10.027-9.99 24.071-16.507 50.676-20.091 27.293-3.69 63.563-3.727 115.506-3.727h289.578c51.941 0 88.175 0.037 115.54 3.727 26.571 3.584 40.616 10.101 50.639 20.128 10.027 10.023 16.544 24.068 20.128 50.639 3.658 27.329 3.727 63.562 3.727 115.54v36.196c0 51.945-0.070 88.179-3.727 115.544-3.584 26.53-10.134 40.612-20.128 50.639-8.831 8.794-20.701 14.84-41.189 18.641-21.32 3.912-49.373 4.923-88.936 5.14-3.568 0.020-7.094 0.741-10.379 2.122s-6.267 3.4-8.778 5.931c-2.507 2.535-4.489 5.538-5.837 8.839s-2.032 6.836-2.011 10.401c0.020 3.565 0.741 7.091 2.122 10.378 1.384 3.287 3.4 6.269 5.931 8.776 2.535 2.508 5.538 4.491 8.839 5.838s6.836 2.030 10.4 2.011c39.166-0.217 71.782-1.158 98.46-6.045 27.435-5.068 50.782-14.66 69.788-33.665 21.791-21.754 31.13-49.226 35.545-81.805 4.198-31.347 4.198-71.27 4.198-120.754v-40.178c0-49.517 0-89.407-4.198-120.791-4.415-32.575-13.754-60.015-35.545-81.805s-49.23-31.13-81.805-35.545c-31.384-4.198-71.311-4.198-120.791-4.198h-293.56c-49.481 0-89.407 0-120.79 4.198-32.577 4.379-60.015 13.754-81.805 35.545s-31.13 49.23-35.509 81.805c-4.235 31.384-4.235 71.311-4.235 120.791v40.178c0 49.484 0 89.407 4.235 120.791 4.343 32.58 13.755 60.015 35.509 81.805 19.003 18.969 42.351 28.597 69.788 33.628 26.677 4.887 59.291 5.828 98.456 6.045z" />
<glyph unicode="&#xe908;" glyph-name="logout" d="M618.607 837.12c-49.48 0-89.403 0-120.787-4.235-32.575-4.343-60.010-13.755-81.801-35.509-18.968-19.003-28.596-42.351-33.627-69.788-4.887-26.677-5.827-59.291-6.044-98.456-0.039-7.2 2.785-14.121 7.849-19.239s11.954-8.015 19.154-8.054c7.201-0.038 14.119 2.785 19.239 7.849 5.116 5.064 8.016 11.954 8.053 19.154 0.217 39.564 1.229 67.616 5.14 88.936 3.801 20.488 9.843 32.396 18.641 41.193 10.027 10.027 24.105 16.542 50.676 20.126 27.329 3.656 63.558 3.728 115.499 3.728h36.196c51.978 0 88.211-0.072 115.54-3.728 26.567-3.584 40.612-10.136 50.676-20.126 9.99-10.027 16.503-24.071 20.087-50.676 3.695-27.293 3.731-63.563 3.731-115.506v-289.578c0-51.941-0.037-88.175-3.731-115.54-3.584-26.571-10.097-40.616-20.124-50.639-10.027-10.027-24.072-16.544-50.639-20.128-27.329-3.654-63.562-3.727-115.54-3.727h-36.196c-51.941 0-88.17 0.074-115.536 3.727-26.534 3.584-40.612 10.134-50.639 20.128-8.798 8.831-14.84 20.701-18.641 41.189-3.912 21.32-4.923 49.373-5.14 88.936-0.020 3.568-0.741 7.094-2.122 10.379s-3.4 6.267-5.931 8.778c-2.535 2.507-5.538 4.489-8.839 5.837s-6.835 2.032-10.4 2.011c-3.565-0.020-7.091-0.741-10.378-2.122-3.286-1.384-6.268-3.4-8.776-5.931-2.508-2.535-4.491-5.538-5.838-8.839s-2.030-6.836-2.011-10.4c0.217-39.166 1.158-71.782 6.044-98.46 5.068-27.435 14.66-50.782 33.664-69.788 21.754-21.791 49.226-31.13 81.801-35.545 31.347-4.198 71.27-4.198 120.75-4.198h40.178c49.517 0 89.407 0 120.787 4.198 32.58 4.415 60.015 13.754 81.805 35.545s31.13 49.23 35.545 81.805c4.198 31.384 4.198 71.311 4.198 120.791v293.56c0 49.482 0 89.407-4.198 120.79-4.379 32.577-13.754 60.015-35.545 81.805s-49.226 31.13-81.805 35.509c-31.379 4.235-71.303 4.235-120.787 4.235h-40.178zM620.597 475.148c7.201 0 14.107-2.859 19.198-7.95s7.95-11.997 7.95-19.198c0-7.201-2.859-14.107-7.95-19.198s-11.997-7.95-19.198-7.95h-397.18l70.981-60.809c5.472-4.686 8.859-11.354 9.415-18.534 0.557-7.184-1.763-14.291-6.447-19.763s-11.351-8.86-18.533-9.417c-7.182-0.557-14.291 1.761-19.763 6.447l-126.687 108.593c-2.98 2.548-5.373 5.71-7.014 9.273s-2.49 7.438-2.49 11.358c0 3.92 0.85 7.795 2.49 11.358s4.033 6.726 7.014 9.273l126.687 108.592c2.71 2.32 5.849 4.083 9.24 5.19s6.966 1.534 10.523 1.258c3.556-0.276 7.023-1.249 10.203-2.864s6.011-3.842 8.33-6.551c2.32-2.71 4.083-5.849 5.189-9.24s1.534-6.967 1.258-10.523c-0.276-3.556-1.249-7.021-2.864-10.204-1.615-3.178-3.842-6.009-6.551-8.331l-70.944-60.809h397.144z" />
<glyph unicode="&#xe909;" glyph-name="magic" d="M909.935 554.329l-188.67 92.064c-2.241 1.12-3.391 3.392-4.547 5.664l-93.184 188.672c-15.933 32.96-56.832 46.624-89.821 30.72-13.361-6.542-24.162-17.352-30.691-30.72l-93.184-188.672c-1.24-2.092-2.77-3.999-4.542-5.664l-188.672-93.216c-32.96-15.905-46.624-56.832-30.72-89.793 6.556-13.357 17.361-24.162 30.72-30.72l188.672-92.033c2.24-1.151 3.392-3.424 4.542-4.542l94.339-188.674c15.901-32.956 56.832-46.621 89.793-30.72 13.361 6.545 24.158 17.355 30.687 30.72l92.062 188.674c1.155 2.241 3.424 4.542 4.547 4.542l188.67 93.184c32.961 15.938 46.625 56.832 30.72 89.793-5.693 13.664-17.056 23.871-30.72 30.721zM770.159 540.664l-87.519-76.157c-17.056-15.905-29.569-36.352-34.111-59.105l-22.721-113.631c-1.151-4.579-5.698-7.999-10.24-6.849-2.273 0-3.424 1.151-4.542 3.424l-76.161 87.519c-15.905 17.056-36.385 29.536-59.105 34.111l-113.663 22.721c-4.544 1.118-7.968 5.698-6.816 10.24 0 2.241 1.12 3.391 3.392 4.542l87.518 76.161c17.056 15.905 29.569 36.352 34.111 59.104l22.721 113.632c1.155 4.576 5.698 8 10.24 6.848 1.708-0.285 3.293-1.076 4.547-2.272l76.161-87.52c15.901-17.056 36.381-29.568 59.101-34.112l113.664-22.72c4.547-1.152 7.971-5.696 6.816-10.24-0.582-2.175-1.753-4.149-3.391-5.698zM314.953 138.363l-70.751 34.521c-0.84 0.422-1.272 1.274-1.704 2.126l-34.943 70.75c-5.976 12.362-21.311 17.486-33.683 11.522-5.011-2.454-9.060-6.509-11.508-11.522l-34.943-70.75c-0.465-0.786-1.039-1.499-1.704-2.126l-70.751-34.955c-12.36-5.964-17.484-21.311-11.52-33.669 2.458-5.009 6.51-9.060 11.52-11.522l70.751-34.509c0.84-0.434 1.272-1.286 1.704-1.704l35.376-70.75c5.964-12.362 21.311-17.486 33.672-11.522 5.010 2.454 9.060 6.509 11.508 11.522l34.523 70.75c0.432 0.84 1.284 1.704 1.704 1.704l70.751 34.943c12.36 5.976 17.483 21.311 11.52 33.669-2.136 5.124-6.396 8.954-11.52 11.522zM262.538 133.239l-32.819-28.561c-6.396-5.964-11.088-13.631-12.792-22.163l-8.52-42.611c-0.432-1.716-2.136-2.998-3.84-2.568-0.852 0-1.284 0.434-1.704 1.286l-28.559 32.817c-5.964 6.398-13.644 11.076-22.163 12.792l-42.623 8.52c-1.704 0.422-2.988 2.138-2.556 3.842 0 0.84 0.42 1.27 1.272 1.704l32.819 28.557c6.396 5.964 11.088 13.631 12.792 22.163l8.52 42.611c0.432 1.716 2.136 3.002 3.84 2.568 0.641-0.106 1.234-0.401 1.704-0.852l28.56-32.817c5.964-6.398 13.643-11.088 22.163-12.792l42.623-8.52c1.704-0.434 2.988-2.138 2.556-3.842-0.218-0.815-0.659-1.552-1.272-2.134z" />
<glyph unicode="&#xe90a;" glyph-name="menu" d="M163.84 676.206c0 21.006 17.029 38.034 38.034 38.034h620.25c21.008 0 38.035-17.029 38.035-38.034v0c0-21.006-17.027-38.034-38.035-38.034h-620.25c-21.006 0-38.034 17.028-38.034 38.034v0zM163.84 219.795c0 21.004 17.029 38.031 38.034 38.031h620.25c21.008 0 38.035-17.027 38.035-38.031v0c0-21.008-17.027-38.035-38.035-38.035h-620.25c-21.006 0-38.034 17.027-38.034 38.035v0zM163.84 448c0 21.004 17.029 38.035 38.034 38.035h620.25c21.008 0 38.035-17.031 38.035-38.035v0c0-21.004-17.027-38.035-38.035-38.035h-620.25c-21.006 0-38.034 17.031-38.034 38.035v0z" />
<glyph unicode="&#xe90b;" glyph-name="profile" d="M341.334 331.948c-37.116 0-72.712-14.746-98.957-40.989-26.245-26.247-40.989-61.841-40.989-98.959 0-14.483 5.754-28.373 15.996-38.617 10.242-10.24 24.133-15.995 38.617-15.995h512c14.483 0 28.377 5.755 38.617 15.995 10.244 10.244 15.995 24.134 15.995 38.617 0 37.118-14.742 72.712-40.989 98.959-26.243 26.243-61.841 40.989-98.955 40.989h-341.334zM198.932 334.402c37.767 37.769 88.991 58.986 142.402 58.986h341.334c53.412 0 104.632-21.217 142.402-58.986 37.765-37.765 58.982-88.99 58.982-142.402 0-30.777-12.227-60.297-33.989-82.059-21.766-21.766-51.282-33.993-82.063-33.993h-512c-30.779 0-60.298 12.227-82.062 33.993-21.765 21.762-33.991 51.282-33.991 82.059 0 53.412 21.218 104.636 58.985 142.402zM512 758.615c-53.727 0-97.28-43.554-97.28-97.28s43.553-97.28 97.28-97.28c53.727 0 97.28 43.554 97.28 97.28s-43.553 97.28-97.28 97.28zM353.28 661.335c0 87.659 71.061 158.72 158.72 158.72s158.72-71.061 158.72-158.72c0-87.658-71.062-158.719-158.72-158.719s-158.72 71.060-158.72 158.719z" />
<glyph unicode="&#xe90c;" glyph-name="project" d="M385.536 642.56c-7.74 0-15.163-3.075-20.636-8.548s-8.548-12.896-8.548-20.636c0-7.74 3.075-15.163 8.548-20.636s12.896-8.548 20.636-8.548h291.84c7.741 0 15.163 3.075 20.636 8.548s8.548 12.896 8.548 20.636c0 7.74-3.076 15.163-8.548 20.636s-12.894 8.548-20.636 8.548h-291.84zM317.44 457.728c0 7.741 3.075 15.163 8.548 20.636s12.896 8.548 20.636 8.548h252.928c7.741 0 15.163-3.076 20.636-8.548s8.548-12.894 8.548-20.636c0-7.741-3.076-15.163-8.548-20.636s-12.894-8.548-20.636-8.548h-252.928c-7.74 0-15.163 3.076-20.636 8.548s-8.548 12.894-8.548 20.636zM424.448 331.264c-7.741 0-15.163-3.076-20.636-8.548s-8.548-12.894-8.548-20.636c0-7.741 3.075-15.163 8.548-20.636s12.895-8.548 20.636-8.548h252.928c7.741 0 15.163 3.076 20.636 8.548s8.548 12.894 8.548 20.636c0 7.741-3.076 15.163-8.548 20.636s-12.894 8.548-20.636 8.548h-252.928zM122.88 769.024c0 37.589 30.507 68.096 68.096 68.096h642.048c37.589 0 68.096-30.507 68.096-68.096v-642.048c0-18.059-7.176-35.381-19.943-48.153-12.771-12.767-30.093-19.943-48.153-19.943h-642.048c-18.060 0-35.381 7.176-48.151 19.943-12.771 12.771-19.945 30.093-19.945 48.153v642.048zM190.976 778.752c-2.58 0-5.054-1.025-6.879-2.849s-2.849-4.299-2.849-6.879v-642.048c0-5.37 4.358-9.728 9.728-9.728h642.048c2.58 0 5.054 1.024 6.877 2.851 1.827 1.823 2.851 4.297 2.851 6.877v642.048c0 2.58-1.024 5.054-2.851 6.879-1.823 1.824-4.297 2.849-6.877 2.849h-642.048z" />
<glyph unicode="&#xe90d;" glyph-name="schedule" d="M724.992 837.118v-53.248h53.248c29.331 0 57.459-11.651 78.201-32.392 20.738-20.74 32.391-48.869 32.391-78.2v-491.518c0-29.331-11.653-57.463-32.391-78.201-20.742-20.742-48.869-32.395-78.201-32.395h-573.44c-29.331 0-57.46 11.653-78.2 32.395-20.74 20.738-32.392 48.869-32.392 78.201v491.518c0 29.331 11.652 57.46 32.392 78.2s48.87 32.392 78.2 32.392h53.248v53.248c0 7.604 3.021 14.897 8.398 20.274s12.67 8.398 20.274 8.398c7.604 0 14.897-3.021 20.274-8.398s8.398-12.67 8.398-20.274v-53.248h352.256v53.248c0 7.604 3.023 14.897 8.397 20.274 5.378 5.377 12.673 8.398 20.275 8.398 7.606 0 14.897-3.021 20.275-8.398s8.397-12.67 8.397-20.274zM831.488 562.686h-679.936v-380.926c0-14.123 5.61-27.668 15.596-37.655s23.53-15.593 37.652-15.593h573.44c14.123 0 27.664 5.607 37.65 15.593s15.598 23.532 15.598 37.655v380.926zM151.552 620.030h679.936v53.248c0 14.122-5.612 27.666-15.598 37.652s-23.527 15.596-37.65 15.596h-573.44c-14.122 0-27.666-5.61-37.652-15.596s-15.596-23.53-15.596-37.652v-53.248zM507.449 403.677c-4.714-3.15-10.26-4.829-15.929-4.829-7.602 0-14.897 3.019-20.275 8.397-5.374 5.378-8.397 12.669-8.397 20.275 0 5.669 1.683 11.211 4.833 15.929 3.15 4.714 7.627 8.389 12.866 10.559 5.239 2.167 11.006 2.736 16.568 1.63s10.67-3.838 14.68-7.848c4.010-4.010 6.738-9.118 7.848-14.68 1.106-5.562 0.537-11.325-1.634-16.564s-5.845-9.72-10.559-12.87zM712.249 403.677c-4.714-3.15-10.26-4.829-15.929-4.829-7.602 0-14.897 3.019-20.275 8.397-5.374 5.378-8.397 12.669-8.397 20.275 0 5.669 1.683 11.211 4.833 15.929 3.15 4.714 7.627 8.389 12.866 10.559 5.239 2.167 11.006 2.736 16.568 1.63s10.67-3.838 14.68-7.848c4.010-4.010 6.738-9.118 7.848-14.68 1.106-5.562 0.537-11.325-1.634-16.564s-5.845-9.72-10.559-12.87zM507.449 239.837c-4.714-3.15-10.256-4.829-15.929-4.829-7.602 0-14.897 3.019-20.275 8.397-5.374 5.378-8.397 12.669-8.397 20.275 0 5.669 1.683 11.211 4.833 15.929 3.15 4.714 7.627 8.389 12.866 10.559 5.239 2.167 11.006 2.736 16.568 1.63s10.67-3.838 14.68-7.848c4.010-4.010 6.738-9.118 7.848-14.68 1.106-5.562 0.537-11.325-1.634-16.564s-5.845-9.72-10.559-12.87zM712.249 239.837c-4.714-3.15-10.256-4.829-15.929-4.829-7.602 0-14.897 3.019-20.275 8.397-5.374 5.378-8.397 12.669-8.397 20.275 0 5.669 1.683 11.211 4.833 15.929 3.15 4.714 7.627 8.389 12.866 10.559 5.239 2.167 11.006 2.736 16.568 1.63s10.67-3.838 14.68-7.848c4.010-4.010 6.738-9.118 7.848-14.68 1.106-5.562 0.537-11.325-1.634-16.564s-5.845-9.72-10.559-12.87zM302.649 403.677c-4.715-3.15-10.258-4.829-15.929-4.829-7.604 0-14.897 3.019-20.274 8.397s-8.398 12.669-8.398 20.275c0 5.669 1.682 11.211 4.832 15.929 3.151 4.714 7.629 8.389 12.868 10.559 5.239 2.167 11.004 2.736 16.566 1.63s10.67-3.838 14.68-7.848c4.010-4.010 6.74-9.118 7.847-14.68s0.539-11.325-1.631-16.564c-2.17-5.239-5.845-9.72-10.56-12.87zM302.649 239.837c-4.715-3.15-10.258-4.829-15.929-4.829-7.604 0-14.897 3.019-20.274 8.397s-8.398 12.669-8.398 20.275c0 5.669 1.682 11.211 4.832 15.929 3.151 4.714 7.629 8.389 12.868 10.559 5.239 2.167 11.004 2.736 16.566 1.63s10.67-3.838 14.68-7.848c4.010-4.010 6.74-9.118 7.847-14.68s0.539-11.325-1.631-16.564c-2.17-5.239-5.845-9.72-10.56-12.87z" />
<glyph unicode="&#xe90e;" glyph-name="support" d="M512 874.667c-235.263 0-426.667-191.404-426.667-426.667v-176.767c0-43.691 38.272-79.233 85.333-79.233h42.667c11.316 0 22.168 4.494 30.169 12.497 8.003 8.001 12.497 18.853 12.497 30.169v219.434c0 11.316-4.494 22.168-12.497 30.172-8.001 8.001-18.853 12.495-30.169 12.495h-38.741c23.723 165.121 165.804 292.566 337.408 292.566s313.685-127.445 337.408-292.566h-38.741c-11.316 0-22.168-4.494-30.169-12.495-8.003-8.003-12.497-18.855-12.497-30.172v-262.101c0-47.061-38.273-85.333-85.333-85.333h-85.333v42.667h-170.667v-128h256c94.124 0 170.667 76.543 170.667 170.667 47.061 0 85.333 35.542 85.333 79.233v176.767c0 235.263-191.404 426.667-426.667 426.667z" />
<glyph unicode="&#xe90f;" glyph-name="telegram" d="M820.507 791.396c9.568 4.218 20.042 5.673 30.331 4.213s20.013-5.781 28.164-12.514c8.151-6.733 14.434-15.631 18.186-25.768 3.756-10.137 4.846-21.144 3.162-31.873l-87.818-557.908c-8.52-53.817-64.897-84.677-112.022-57.872-39.416 22.426-97.96 56.979-150.622 93.032-26.329 18.047-106.983 75.837-97.071 116.957 8.516 35.164 144.040 167.289 221.483 245.844 30.392 30.862 16.531 48.665-19.362 20.277-89.174-70.484-232.247-177.668-279.564-207.843-41.741-26.604-63.502-31.146-89.523-26.604-47.471 8.274-91.497 21.090-127.43 36.704-48.556 21.086-46.194 91.001-0.039 111.362l662.124 291.992z" />
<glyph unicode="&#xe910;" glyph-name="show" d="M512 576c-33.948 0-66.503-13.486-90.509-37.491-24.004-24.003-37.49-56.562-37.49-90.509s13.486-66.507 37.49-90.509c24.007-24.007 56.562-37.491 90.509-37.491s66.507 13.484 90.509 37.491c24.007 24.003 37.491 56.562 37.491 90.509s-13.484 66.507-37.491 90.509c-24.003 24.005-56.562 37.491-90.509 37.491zM512 234.668c-56.578 0-110.841 22.475-150.849 62.484-40.008 40.006-62.484 94.269-62.484 150.847s22.476 110.842 62.484 150.85c40.008 40.008 94.271 62.484 150.849 62.484 56.582 0 110.842-22.476 150.852-62.484 40.006-40.008 62.484-94.271 62.484-150.85s-22.479-110.842-62.484-150.847c-40.010-40.010-94.269-62.484-150.852-62.484zM512 768c-213.332 0-395.519-132.693-469.332-320 73.813-187.306 256-320 469.332-320 213.336 0 395.522 132.694 469.336 320-73.814 187.307-256 320-469.336 320z" />
<glyph unicode="&#xe911;" glyph-name="hide" d="M504.746 576l135.254-134.828v6.828c0 33.948-13.484 66.507-37.491 90.509-24.003 24.005-56.562 37.491-90.509 37.491h-7.254zM321.281 541.868l66.133-66.134c-2.133-8.962-3.413-17.92-3.413-27.734 0-33.948 13.486-66.507 37.49-90.509 24.007-24.007 56.562-37.491 90.509-37.491 9.388 0 18.776 1.282 27.734 3.412l66.134-66.13c-28.586-14.082-60.162-22.614-93.868-22.614-56.578 0-110.841 22.475-150.849 62.484-40.008 40.006-62.484 94.269-62.484 150.847 0 33.706 8.533 65.282 22.613 93.868zM85.334 777.813l116.48-116.48c-70.4-55.466-125.866-128.001-159.146-213.333 73.813-187.306 256-320 469.332-320 66.134 0 129.282 12.8 186.88 35.84l18.346-17.92 124.588-124.588 54.186 54.19-756.479 756.478zM512 661.333c56.582 0 110.842-22.476 150.852-62.484 40.006-40.008 62.484-94.271 62.484-150.85 0-27.308-5.55-53.76-15.36-77.652l125.010-125.014c64 53.334 115.2 123.306 146.35 202.666-73.814 187.307-256 320-469.336 320-59.732 0-116.906-10.667-170.666-29.867l92.588-91.733c24.318 9.387 50.344 14.933 78.078 14.933z" />
<glyph unicode="&#xe912;" glyph-name="copy" d="M640 906.667h-173.056c-78.421 0-140.544 0-189.141-6.528-50.005-6.741-90.496-20.907-122.453-52.821-31.915-31.957-46.080-72.448-52.821-122.453-6.528-48.64-6.528-110.72-6.528-189.141v-258.389c0.001-38.118 13.608-74.987 38.372-103.966s59.058-48.171 96.711-54.114c5.845-32.597 17.152-60.416 39.765-83.072 25.685-25.685 58.027-36.693 96.427-41.899 36.992-4.949 84.053-4.949 142.379-4.949h132.693c58.325 0 105.387 0 142.379 4.949 38.4 5.205 70.741 16.213 96.427 41.899s36.693 58.027 41.899 96.427c4.949 36.992 4.949 84.053 4.949 142.379v218.027c0 58.325 0 105.387-4.949 142.379-5.205 38.4-16.213 70.741-41.899 96.427-22.656 22.613-50.475 33.92-83.072 39.765-5.943 37.653-25.135 71.947-54.114 96.711s-65.847 38.371-103.966 38.372zM730.88 777.771c-26.027 0.896-55.467 0.896-88.533 0.896h-132.693c-58.325 0-105.387 0-142.379-4.992-38.4-5.163-70.741-16.171-96.427-41.856-25.643-25.685-36.736-58.027-41.856-96.427-4.992-36.992-4.992-84.053-4.992-142.379v-218.027c0-33.067 0-62.507 0.896-88.533-18.944 6.49-35.385 18.739-47.022 35.034s-17.886 35.823-17.874 55.846v256c0 81.365 0.085 139.136 5.973 182.997 5.76 42.923 16.597 67.669 34.645 85.717s42.795 28.885 85.675 34.645c43.904 5.888 101.675 5.973 183.040 5.973h170.667c20.023 0.012 39.552-6.237 55.846-17.874s28.544-28.078 35.034-47.022zM316.075 686.507c11.819 11.819 28.373 19.499 59.733 23.723 32.171 4.309 74.923 4.395 136.149 4.395h128c61.227 0 103.936-0.085 136.192-4.395 31.317-4.224 47.872-11.947 59.691-23.723 11.819-11.819 19.499-28.373 23.723-59.733 4.309-32.171 4.395-74.923 4.395-136.149v-213.333c0-61.227-0.085-103.936-4.395-136.192-4.224-31.317-11.947-47.872-23.723-59.691-11.819-11.819-28.373-19.499-59.733-23.723-32.213-4.309-74.923-4.395-136.149-4.395h-128c-61.227 0-103.979 0.085-136.192 4.395-31.317 4.224-47.872 11.947-59.691 23.723-11.819 11.819-19.499 28.373-23.723 59.733-4.309 32.213-4.395 74.923-4.395 136.149v213.333c0 61.227 0.085 103.979 4.395 136.192 4.224 31.317 11.947 47.872 23.723 59.691z" />
<glyph unicode="&#xe913;" glyph-name="copied" d="M640 906.667h-173.056c-78.421 0-140.544 0-189.141-6.528-50.005-6.741-90.496-20.907-122.453-52.821-31.915-31.957-46.080-72.448-52.821-122.453-6.528-48.64-6.528-110.72-6.528-189.141v-258.389c0.001-38.118 13.608-74.987 38.372-103.966s59.058-48.171 96.711-54.114c5.845-32.597 17.152-60.416 39.765-83.072 25.685-25.685 58.027-36.693 96.427-41.899 36.992-4.949 84.053-4.949 142.379-4.949h132.693c58.325 0 105.387 0 142.379 4.949 38.4 5.205 70.741 16.213 96.427 41.899s36.693 58.027 41.899 96.427c4.949 36.992 4.949 84.053 4.949 142.379v218.027c0 58.325 0 105.387-4.949 142.379-5.205 38.4-16.213 70.741-41.899 96.427-22.656 22.613-50.475 33.92-83.072 39.765-5.943 37.653-25.135 71.947-54.114 96.711s-65.847 38.371-103.966 38.372zM730.88 777.771c-26.027 0.896-55.467 0.896-88.533 0.896h-132.693c-58.325 0-105.387 0-142.379-4.992-38.4-5.163-70.741-16.171-96.427-41.856-25.643-25.685-36.736-58.027-41.856-96.427-4.992-36.992-4.992-84.053-4.992-142.379v-218.027c0-33.067 0-62.507 0.896-88.533-18.944 6.49-35.385 18.739-47.022 35.034s-17.886 35.823-17.874 55.846v256c0 81.365 0.085 139.136 5.973 182.997 5.76 42.923 16.597 67.669 34.645 85.717s42.795 28.885 85.675 34.645c43.904 5.888 101.675 5.973 183.040 5.973h170.667c20.023 0.012 39.552-6.237 55.846-17.874s28.544-28.078 35.034-47.022zM316.075 686.507c11.819 11.819 28.373 19.499 59.733 23.723 32.171 4.309 74.923 4.395 136.149 4.395h128c61.227 0 103.936-0.085 136.192-4.395 31.317-4.224 47.872-11.947 59.691-23.723 11.819-11.819 19.499-28.373 23.723-59.733 4.309-32.171 4.395-74.923 4.395-136.149v-213.333c0-61.227-0.085-103.936-4.395-136.192-4.224-31.317-11.947-47.872-23.723-59.691-11.819-11.819-28.373-19.499-59.733-23.723-32.213-4.309-74.923-4.395-136.149-4.395h-128c-61.227 0-103.979 0.085-136.192 4.395-31.317 4.224-47.872 11.947-59.691 23.723-11.819 11.819-19.499 28.373-23.723 59.733-4.309 32.213-4.395 74.923-4.395 136.149v213.333c0 61.227 0.085 103.979 4.395 136.192 4.224 31.317 11.947 47.872 23.723 59.691zM745.596 515.435c13.679-11.191 15.697-31.351 4.506-45.030l-192-234.667c-6.046-7.39-15.078-11.695-24.623-11.738-9.549-0.043-18.615 4.181-24.73 11.516l-106.665 128c-11.314 13.577-9.48 33.754 4.097 45.069 13.577 11.311 33.755 9.476 45.071-4.1l81.856-98.227 167.458 204.672c11.191 13.679 31.351 15.697 45.030 4.506z" />
<glyph unicode="&#xe914;" glyph-name="premium" d="M587.853 832h-306.277c-7.133-0.007-14.124-2.001-20.187-5.759s-10.961-9.13-14.142-15.514l-115.2-230.4c-3.182-6.371-4.53-13.502-3.892-20.595s3.235-13.869 7.502-19.571l345.061-460.032c4.949-7.006 12.109-12.139 20.326-14.575 8.222-2.441 17.024-2.039 24.986 1.135 6.912 2.688 12.89 7.334 17.203 13.363l345.062 460.109c4.284 5.71 6.891 12.5 7.526 19.608 0.64 7.109-0.717 14.254-3.917 20.635l-115.2 230.4c-3.191 6.37-8.094 11.727-14.157 15.471s-13.047 5.726-20.173 5.726h-154.522zM561.126 755.2l51.149-153.6h-200.6l51.147 153.6h98.304zM693.222 601.6l-51.149 153.6h76.57l76.8-153.6h-102.221zM612.275 524.8l-100.301-301.056-100.299 301.056h200.6zM623.258 314.752l69.965 210.048h87.552l-157.517-210.048zM400.693 314.752l-157.517 210.048h87.552l69.965-210.048zM330.728 601.6h-102.221l76.8 153.6h76.57l-51.149-153.6z" />
<glyph unicode="&#xe915;" glyph-name="views" d="M989.239 460.958c-1.399 3.162-35.281 78.322-110.601 153.642-100.361 100.36-227.119 153.4-366.639 153.4s-266.281-53.040-366.64-153.4c-75.32-75.32-109.36-150.6-110.6-153.642-1.819-4.092-2.76-8.521-2.76-12.996 0-4.48 0.94-8.909 2.76-13.001 1.4-3.162 35.28-78.281 110.6-153.6 100.36-100.322 227.12-153.361 366.64-153.361s266.278 53.039 366.639 153.361c75.319 75.319 109.201 150.438 110.601 153.6 1.818 4.092 2.761 8.521 2.761 13.001 0 4.476-0.943 8.905-2.761 12.996zM512 192c-123.12 0-230.68 44.762-319.721 133.001-36.534 36.331-67.616 77.76-92.28 122.999 24.657 45.244 55.74 86.673 92.28 123 89.040 88.24 196.6 133 319.721 133 123.119 0 230.682-44.76 319.718-133 36.608-36.318 67.755-77.748 92.48-123-28.838-53.841-154.479-256-412.198-256zM512 640c-37.973 0-75.098-11.261-106.67-32.358-31.574-21.097-56.183-51.084-70.715-86.166-14.532-35.085-18.334-73.69-10.926-110.933s25.694-71.454 52.546-98.308c26.852-26.85 61.064-45.137 98.308-52.544 37.244-7.411 75.849-3.61 110.933 10.923 35.081 14.532 65.067 39.142 86.165 70.716 21.099 31.578 32.358 68.698 32.358 106.671-0.055 50.906-20.301 99.711-56.294 135.706s-84.8 56.241-135.706 56.294zM512 320c-25.318 0-50.065 7.505-71.113 21.572-21.050 14.063-37.457 34.057-47.145 57.446-9.688 23.386-12.223 49.122-7.284 73.954 4.939 24.828 17.13 47.637 35.031 65.537 17.9 17.901 40.71 30.092 65.537 35.031 24.832 4.939 50.569 2.404 73.954-7.284 23.39-9.688 43.383-26.094 57.446-47.144 14.063-21.047 21.572-45.798 21.572-71.113 0-33.946-13.487-66.505-37.491-90.509s-56.563-37.491-90.509-37.491z" />
<glyph unicode="&#xe916;" glyph-name="question" d="M560.001 239.999c0-9.492-2.816-18.773-8.090-26.665-5.276-7.895-12.771-14.046-21.543-17.679-8.77-3.635-18.422-4.584-27.733-2.733-9.311 1.853-17.864 6.424-24.576 13.136-6.712 6.715-11.284 15.267-13.136 24.578s-0.902 18.961 2.731 27.733c3.633 8.77 9.787 16.267 17.679 21.541 7.895 5.274 17.174 8.090 26.668 8.090 12.732 0 24.939-5.057 33.941-14.058 9.001-9.004 14.060-21.211 14.060-33.943zM512 672c-88.24 0-160-64.6-160-144.001v-15.999c0-8.487 3.372-16.625 9.372-22.628 6.003-6 14.141-9.372 22.628-9.372s16.625 3.372 22.628 9.372c6 6.003 9.372 14.141 9.372 22.628v15.999c0 44 43.081 80.001 96 80.001 52.921 0 96-36.001 96-80.001 0-43.998-43.079-79.999-96-79.999-8.487 0-16.625-3.372-22.628-9.372-6-6.003-9.372-14.141-9.372-22.628v-32c0-8.487 3.372-16.625 9.372-22.628 6.003-6 14.141-9.372 22.628-9.372s16.625 3.372 22.628 9.372c6 6.003 9.372 14.141 9.372 22.628v2.879c72.96 13.4 128 71.6 128 141.119 0 79.401-71.76 144.001-160 144.001zM928 448c0-82.276-24.398-162.706-70.107-231.117-45.712-68.411-110.682-121.732-186.697-153.217-76.012-31.486-159.656-39.724-240.352-23.674-80.696 16.052-154.821 55.674-212.999 113.852s-97.799 132.303-113.85 212.999c-16.051 80.696-7.813 164.34 23.673 240.352 31.486 76.015 84.806 140.985 153.217 186.696s148.841 70.109 231.117 70.109c110.295-0.117 216.037-43.982 294.027-121.972s121.856-183.733 121.973-294.028zM864 448c0 69.62-20.643 137.674-59.321 195.56-38.68 57.888-93.655 103.004-157.974 129.646s-135.095 33.613-203.376 20.031c-68.281-13.582-131.001-47.107-180.229-96.334-49.229-49.23-82.754-111.95-96.336-180.231s-6.611-139.057 20.031-203.376c26.642-64.319 71.758-119.294 129.646-157.972 57.885-38.68 125.94-59.324 195.56-59.324 93.323 0.105 182.796 37.225 248.786 103.214 65.989 65.992 103.109 155.463 103.214 248.786z" />
<glyph unicode="&#xe917;" glyph-name="goal" d="M860.672 672h-79.401l-194.818-194.731c6.712-17.101 7.329-35.991 1.748-53.492-5.578-17.501-17.015-32.549-32.383-42.611-15.37-10.062-33.733-14.524-52.007-12.639-18.274 1.887-35.338 10.008-48.328 22.996-12.99 12.99-21.109 30.057-22.996 48.328-1.887 18.274 2.577 36.637 12.639 52.007s25.108 26.804 42.611 32.385c17.501 5.578 36.391 4.962 53.489-1.748l194.775 194.773v79.403c0.005 10.625 4.225 20.814 11.735 28.331l73.811 73.813c1.365 1.379 3.079 2.358 4.959 2.832s3.855 0.424 5.71-0.144c3.796-1.109 6.612-4.267 7.38-8.149l19.627-98.176 98.133-19.627c3.84-0.768 6.997-3.584 8.107-7.381 0.561-1.845 0.61-3.807 0.144-5.677s-1.429-3.58-2.789-4.947l-73.855-73.814c-3.713-3.718-8.124-6.668-12.978-8.682s-10.057-3.050-15.311-3.050zM112 448c0-106.086 42.143-207.828 117.157-282.843 75.015-75.013 176.756-117.158 282.843-117.158 52.529 0 104.543 10.347 153.073 30.449s92.626 49.566 129.77 86.708c37.142 37.144 66.606 81.24 86.708 129.77s30.447 100.545 30.447 153.073c0.002 38.315-5.376 75.349-15.401 110.377-1.992 8.043-0.788 16.547 3.36 23.72 4.15 7.173 10.918 12.456 18.885 14.738 7.965 2.284 16.506 1.387 23.823-2.499 7.319-3.886 12.844-10.459 15.414-18.337 11.691-40.704 17.92-83.627 17.92-128 0-256.256-207.743-464.001-463.999-464.001s-464 207.745-464 464.001c0 256.256 207.744 464 464 464 43.308 0.043 86.357-5.973 128-17.877 4.059-1.139 7.856-3.069 11.166-5.68 3.313-2.61 6.076-5.85 8.131-9.532s3.365-7.734 3.847-11.923c0.485-4.189 0.137-8.432-1.024-12.486s-3.113-7.838-5.742-11.136c-2.628-3.298-5.883-6.043-9.577-8.078-3.691-2.036-7.751-3.321-11.942-3.783-4.194-0.462-8.433-0.090-12.481 1.093-35.896 10.252-73.050 15.436-110.38 15.403-106.086 0-207.828-42.143-282.843-117.157s-117.157-176.756-117.157-282.842zM304.001 448c0.117-28.26 5.995-56.198 17.271-82.11 11.279-25.912 27.719-49.252 48.316-68.598 20.599-19.346 44.927-34.292 71.492-43.922 26.568-9.63 54.821-13.746 83.032-12.095 28.211 1.653 55.788 9.038 81.052 21.704 25.261 12.666 47.677 30.347 65.877 51.966s31.803 46.719 39.977 73.769c8.177 27.051 10.752 55.484 7.573 83.563-0.895 5.688-0.236 11.51 1.907 16.855 2.146 5.342 5.695 10.006 10.274 13.495 4.579 3.491 10.016 5.676 15.735 6.327 5.72 0.653 11.51-0.256 16.755-2.628 10.711-4.779 17.92-14.975 18.859-26.665 6.627-56.118-4.396-112.903-31.534-162.467s-69.042-89.442-119.888-114.093c-50.849-24.649-108.112-32.844-163.833-23.447s-107.127 35.918-147.081 75.878c-39.938 39.919-66.467 91.277-75.905 146.951s-1.318 112.903 23.235 163.755c24.554 50.851 64.322 92.801 113.791 120.032s106.184 38.394 162.284 31.94c4.24-0.394 8.36-1.63 12.117-3.636 3.755-2.007 7.075-4.742 9.76-8.048 2.687-3.304 4.686-7.114 5.881-11.201 1.195-4.089 1.56-8.375 1.078-12.605-0.483-4.233-1.804-8.326-3.889-12.039-2.087-3.713-4.891-6.973-8.253-9.589s-7.212-4.535-11.323-5.642c-4.113-1.109-8.404-1.385-12.624-0.814-29.143 3.369-58.665 0.539-86.633-8.307-27.97-8.848-53.75-23.508-75.654-43.023-21.901-19.512-39.431-43.437-51.434-70.203s-18.213-55.767-18.215-85.102z" />
<glyph unicode="&#xe918;" glyph-name="idea" d="M351.985 192h320v-64h-320v64zM415.985 64h192v-64h-192v64zM511.985 896c-84.87 0-166.263-33.714-226.275-93.726s-93.726-141.404-93.726-226.274c-2.164-46.507 6.745-92.862 25.993-135.253 19.249-42.394 48.286-79.609 84.726-108.588 32-29.759 49.281-46.719 49.281-76.159h64c0 58.88-35.521 91.841-70.081 123.519-29.908 22.903-53.745 52.792-69.422 87.047-15.677 34.253-22.713 71.829-20.497 109.434 0 67.896 26.97 133.010 74.979 181.019 48.011 48.009 113.125 74.981 181.021 74.981 67.894 0 133.010-26.971 181.019-74.981s74.981-113.123 74.981-181.019c2.18-37.634-4.908-75.227-20.643-109.483-15.733-34.255-39.631-64.129-69.598-86.999-34.241-32-69.759-63.998-69.759-123.519h64c0 29.44 16.959 46.399 49.279 76.481 36.415 28.928 65.441 66.089 84.687 108.425 19.249 42.338 28.172 88.637 26.034 135.095 0 42.023-8.277 83.634-24.359 122.458s-39.653 74.101-69.369 103.816c-29.713 29.715-64.99 53.286-103.814 69.367s-80.435 24.359-122.458 24.359z" />
<glyph unicode="&#xe919;" glyph-name="people" d="M703.013 425.477c87.515 0 158.83 77.951 158.83 172.8 0 93.769-70.949 168.044-158.83 168.044-87.15 0-158.847-75.372-158.847-168.776 0.366-94.484 71.697-172.069 158.847-172.069zM279.442 417.395c75.739 0 137.874 68.023 137.874 151.479 0 81.627-61.403 147.436-137.874 147.436-75.739 0-138.24-66.926-137.874-148.168 0.366-83.11 62.135-150.747 137.874-150.747zM703.013 480.992c-53.687 0-99.657 51.473-99.657 116.553 0 64 45.239 113.242 99.657 113.242 54.784 0 99.638-48.53 99.638-112.494 0-65.097-45.219-117.302-99.638-117.302zM279.442 472.179c-44.855 0-83.090 43.008-83.090 95.963 0 51.839 37.851 93.384 83.090 93.384 46.319 0 83.456-40.814 83.456-92.652 0-53.687-38.234-96.695-83.456-96.695zM75.008 80.223h288.639c-17.664 9.93-31.266 32-28.689 54.418h-269.129c-7.351 0-11.026 2.926-11.026 9.928 0 91.173 104.046 176.477 224.291 176.477 46.319 0 87.864-11.025 123.538-31.98 11.827 14.987 25.832 28.123 41.548 38.966-47.433 31.269-104.414 47.433-165.086 47.433-154.074 0-279.094-111.762-279.094-234.203 0-40.814 24.997-61.038 75.008-61.038zM472.101 80.223h461.824c61.018 0 90.075 18.378 90.075 58.826 0 96.329-121.71 235.703-320.987 235.703-199.663 0-321.353-139.374-321.353-235.703 0-40.448 29.038-58.826 90.441-58.826zM454.456 135.739c-9.565 0-13.607 2.56-13.607 10.296 0 60.306 93.386 173.166 262.164 173.166 168.411 0 261.778-112.859 261.778-173.166 0-7.717-3.657-10.296-13.239-10.296h-497.096z" />
</font>
</defs>
</svg>
